Jumanji Welcome To The Jungle 2017 CAM AAC x264-MiniMe
2.331 vistas

  • Information
  • Trailer

Sinopsis de Jumanji Welcome To The Jungle 2017 CAM AAC x264-MiniMe ()

Summary : Four teenagers discover an old video game console and are literally drawn into the game’s jungle setting, becoming the adult avatars they choose.

IMDB : http://www.imdb.com/title/tt2283362/

TRAiLER : http://youtu.be/v_TJKwJwN0E

Source : 😉

Notes : It’s a CAM simples

Video Info
————

Format : AVC
Format/Info : Advanced Video Codec
Format profile : [email protected]
Format settings : CABAC / 3 Ref Frames
Format settings, CABAC : Yes
Format settings, ReFrames : 3 frames
Codec ID : avc1
Codec ID/Info : Advanced Video Coding
Duration : 1 h 50 min
Bit rate mode : Variable
Bit rate : 751 kb/s
Maximum bit rate : 40.0 Mb/s
Width : 720 pixels
Height : 288 pixels
Display aspect ratio : 2.500
Frame rate mode : Constant
Frame rate : 29.970 (30000/1001) FPS
Color space : YUV
Chroma subsampling : 4:2:0
Bit depth : 8 bits
Scan type : Progressive
Bits/(Pixel*Frame) : 0.121
Stream size : 594 MiB (85%)
Writing library : x264 core 152 r2851 ba24899

Audio Info
————

Format : AAC
Format/Info : Advanced Audio Codec
Format profile : LC
Codec ID : mp4a-40-2
Duration : 1 h 50 min
Bit rate mode : Variable
Bit rate : 128 kb/s
Maximum bit rate : 137 kb/s
Channel(s) : 2 channels
Channel positions : Front: L R
Sampling rate : 48.0 kHz
Frame rate : 46.875 FPS (1024 SPF)
Compression mode : Lossy
Stream size : 101 MiB (15%)

622499d9d11e637c0dca46cb04865452.png
b26e478a24c321d713837427eaa98c2f.png
d602a446aaeed9203f8caab03b11c6a3.png


estadisticas